【4K典藏版】钢铁侠 - Iron Man

60FPS/帧率电影高速下载


【4K典藏版】钢铁侠 - Iron Man

动作 科幻 惊悚 冒险
美国 / 126分钟
2008-04-30中国大陆上映

文件大小:161.33GB

观看4K 60帧影片必要的说明如下:

1.建议硬件配置:
CPU    :i7 9700/3700X
显卡    :2070/RX5000
硬盘    :SSD

2.建议播放器使用Potplay,配置说明:https://www.60pian.com/show/141

3.建议音响采用5.1声道以上,才能发挥DTS的真正威力。

另注意:低配置环境会出现掉帧,卡顿等现象。

文件详细信息:

General
Unique ID                      : 214603572210223562831674629732913060867 (0xA1732503CC78A2487AA70604990F1C03)
File size                      : 161 GiB
Duration                       : 2 h 6 min
Overall bit rate mode          : Variable
Overall bit rate               : 183 Mb/s
Movie name                     : Iron.Man.2008.2160p.60pian.com

Video
Duration                       : 2 h 6 min
Bit rate                       : 179 Mb/s
Width                          : 3 840 pixels
Height                         : 1 608 pixels
Display aspect ratio           : 2.40:1
Frame rate                     : 60.000 FPS
Color space                    : YUV
Chroma subsampling             : 4:2:0
Bit depth                      : 8 bits
Bits/(Pixel*Frame)             : 0.483
Title                          : 60pian.com

Audio
ID                             : 2
Format                         : DTS XLL
Format/Info                    : Digital Theater Systems
Commercial name                : DTS-HD Master Audio
Codec ID                       : A_DTS
Duration                       : 2 h 6 min
Bit rate mode                  : Variable
Bit rate                       : 4 046 kb/s
Channel(s)                     : 6 channels
Channel layout                 : C L R Ls Rs LFE
Sampling rate                  : 48.0 kHz
Frame rate                     : 93.750 FPS (512 SPF)
Bit depth                      : 24 bits
Compression mode               : Lossless
Stream size                    : 3.57 GiB (2%)
Title                          : Iron.Man.2008.2160p.BluRay.x264.8bit.DTS-HD.MA.5.1
Language                       : English
Default                        : Yes
Forced                         : Yes

Text #1
ID                             : 3
Format                         : UTF-8
Codec ID                       : S_TEXT/UTF8
Codec ID/Info                  : UTF-8 Plain Text
Duration                       : 2 h 5 min
Bit rate                       : 43 b/s
Count of elements              : 1311
Stream size                    : 40.4 KiB (0%)
Language                       : chinese
Default                        : Yes
Forced                         : Yes

Text #2
ID                             : 4
Format                         : UTF-8
Codec ID                       : S_TEXT/UTF8
Codec ID/Info                  : UTF-8 Plain Text
Duration                       : 2 h 4 min
Bit rate                       : 58 b/s
Count of elements              : 1336
Stream size                    : 53.5 KiB (0%)
Title                          : English-SRT
Language                       : English
Default                        : No
Forced                         : No

 

关于【4K典藏版】钢铁侠60帧电影的注意事项:
  • 下载链接失效请【联系客服】解决;
  • 强烈推荐电脑端观看60帧电影,不推荐手机观看,配置低会出现卡顿现象;
  • 电脑端请安装【PotPlayer播放器】,或其他拥有全能解码的影音播放器;
  • 60帧影片没有声音?请查看【PotPlayer播放MKV格式文件没有声音】;
  • 无字幕?请在菜单中选择字幕,或百度下载自己想要的字幕;
  • 种子文件下载工具,推荐使用:Xdown、Aria2等,不推荐迅雷;